请选择 进入手机版 | 继续访问电脑版
设为首页收藏本站

 找回密码
 注册

QQ登录

只需一步,快速开始

扫一扫,访问微社区

查看: 44691|回复: 297

【BT分享】中华国乐原創--著名琵琶演奏家曲文军专辑 -- 高原魂 [复制链接]

发表于 2005-5-10 15:00 |显示全部楼层

PERFORMER \"曲文軍、何王保,廣東民族樂團,陳葆坤\"[br]TITLE \"高原魂-中國琵琶西北音韻代表·著名琵琶演奏家曲文軍專輯\"[br]FILE \"CDImage.ape\" WAVE[br] TRACK 01 AUDIO[br] TITLE \"01.高原魂\"[br] PERFORMER \"曲文軍、何王保,廣東民族樂團,陳葆坤\"[br] INDEX 01 00:00:00[br] TRACK 02 AUDIO[br] TITLE \"02.思绪\"[br] PERFORMER \"曲文軍、何王保,廣東民族樂團,陳葆坤\"[br] INDEX 00 17:50:45[br] INDEX 01 17:55:52[br] TRACK 03 AUDIO[br] TITLE \"03.萧索秋夕\"[br] PERFORMER \"曲文軍、何王保,廣東民族樂團,陳葆坤\"[br] INDEX 00 24:07:35[br] INDEX 01 24:12:50[br] TRACK 04 AUDIO[br] TITLE \"04.豫调\"[br] PERFORMER \"曲文軍、何王保,廣東民族樂團,陳葆坤\"[br] INDEX 00 32:18:40[br] INDEX 01 32:24:57[br] TRACK 05 AUDIO[br] TITLE \"05.渭水情\"[br] PERFORMER \"曲文軍、何王保,廣東民族樂團,陳葆坤\"[br] INDEX 00 36:14:67[br] INDEX 01 36:19:70[br] TRACK 06 AUDIO[br] TITLE \"06.遐方怨\"[br] PERFORMER \"曲文軍、何王保,廣東民族樂團,陳葆坤\"[br] INDEX 00 44:03:45[br] INDEX 01 44:08:62[br] TRACK 07 AUDIO[br] TITLE \"07.秦赋\"[br] PERFORMER \"曲文軍、何王保,廣東民族樂團,陳葆坤\"[br] INDEX 00 48:02:50[br] INDEX 01 48:07:60

[br]
游客,如果您要查看本帖隐藏内容请回复
[br][br]

本帖子中包含更多资源

您需要 登录 才可以下载或查看,没有帐号?注册

x

使用道具 举报

发表于 2005-5-11 21:33 |显示全部楼层
著名琵琶演奏家曲文军[em10][em10][em10][em10][em10]

使用道具 举报

发表于 2005-5-11 21:55 |显示全部楼层

想聽,頂啦!!!

使用道具 举报

发表于 2005-5-12 08:20 |显示全部楼层
琵琶好听,顶了.

使用道具 举报

发表于 2005-5-12 13:18 |显示全部楼层
提示: 作者被禁止或删除 内容自动屏蔽

使用道具 举报

发表于 2005-5-13 02:03 |显示全部楼层
想听一听。[em04]

使用道具 举报

发表于 2005-5-13 08:58 |显示全部楼层
我很想看看,听听呢~喜欢琵琶![em03][em03]

使用道具 举报

发表于 2005-5-13 09:02 |显示全部楼层
我总是下不了这种asp的,我少了什么软件呀?告诉我楼主!

使用道具 举报

发表于 2005-5-13 17:52 |显示全部楼层

座下来欣赏一下

使用道具 举报

发表于 2005-5-13 21:17 |显示全部楼层
谢谢!!!!!!!!!!

使用道具 举报

您需要登录后才可以回帖 登录 | 注册

本版积分规则

手机版|古曲网 ( 粤ICP备17071138号  

GMT+8, 2017-7-29 00:56

Powered by Discuz! X3.2

© 2001-2011 Comsenz Inc.

返回顶部